Loading...
Loading...
Loading...

The Ghan - Australia's Greatest Train Journey (1280x720p HD, 50fps, soft Eng subs)

Seeders: 2
Leechers: n/a
Completed: 11

Age: 2 weeks    Visits: 40    Category: TV    Size: 6.6 GB

Posted by: ElsonRoa    Comments: Read Comments

Info Hash: D40277761D829C12B03E926A990122CFA16BBE23



Torrent Description



The Ghan - Australia's Greatest Train Journey (1280x720p HD, 50fps, soft Eng subs)

The Ghan follows one of the world's great rail journeys, taking viewers on an immersive and visually stunning ride on Australia's most iconic passenger trains. Known as the Ghan, it travels for 2979 kilometres over 54 hours from the bottom to the top of the country. It begins in the suburban city of Adelaide, traversing a seemingly endless outback that includes the magnificent red centre, ending in the tropical coastal town of Darwin at the north western tip of Australia. The transcontinental train line led to the development of central Australia and the growth of towns along its path - Port Augusta, Alice Springs and Darwin. It took an epic 127 years to complete and was constructed by local Aboriginal surveyors and early immigrants, including the famous Afghan camel drivers, after whom the train is named.

First broadcast: 28 October 2018
Duration: 3 hours

Torrent dead? Request reseed at 1337x.to or katcr.co - or ask at [email protected]



Media info:-
General
Format : MPEG-4
Format profile : Base Media
Codec ID : isom (isom/iso2/avc1/mp41)
File size : 6.64 GiB
Duration : 3h 0mn
Overall bit rate mode : Variable
Overall bit rate : 5 274 Kbps
Writing application : Lavf57.83.100

Video
ID : 1
Format : AVC
Format/Info : Advanced Video Codec
Format profile : [email protected]
Format settings, CABAC : Yes
Format settings, ReFrames : 4 frames
Codec ID : avc1
Codec ID/Info : Advanced Video Coding
Duration : 3h 0mn
Bit rate : 4 946 Kbps
Width : 1 280 pixels
Height : 720 pixels
Display aspect ratio : 16:9
Frame rate mode : Constant
Frame rate : 50.000 fps
Color space : YUV
Chroma subsampling : 4:2:0
Bit depth : 8 bits
Scan type : Progressive
Bits/(Pixel*Frame) : 0.107
Stream size : 6.23 GiB (94%)
Encoded date : UTC 1904-01-01 00:00:00
Tagged date : UTC 1904-01-01 00:00:00
Color range : Limited
Color primaries : BT.709
Transfer characteristics : BT.709
Matrix coefficients : BT.709

Audio
ID : 2
Format : AAC
Format/Info : Advanced Audio Codec
Format profile : LC
Codec ID : 40
Duration : 3h 0mn
Bit rate mode : Variable
Bit rate : 320 Kbps
Channel(s) : 2 channels
Channel positions : Front: L R
Sampling rate : 48.0 KHz
Frame rate : 46.875 fps (1024 spf)
Compression mode : Lossy
Stream size : 409 MiB (6%)
Language : English



Recently Added Torrents in TV

Trackers List

tracker name
udp://tracker.opentrackr.org:1337/announce
udp://tracker.leechers-paradise.org:6969/announce
udp://tracker.pirateparty.gr:6969/announce
udp://tracker.coppersurfer.tk:6969/announce
udp://tracker.mg64.net:2710/announce
udp://tracker.zer0day.to:1337/announce

Sharing Widget


Download torrent
6.6 GB
Seeders: 2
Leechers: n/a
The Ghan - Australia's Greatest Train Journey (1280x720p HD, 50fps, soft Eng subs)





Antimagia | One Direction - Story of My Life. | E Flat Panel Stand