Olivia Cooke | DVD Ashoka the Great (2001) | 7x8 season x episode Taskmaster
Loading...
Loading...
Loading...

The Big Bang Theory S12E08 The Consummation Deviation 1080p 5 1 - 2 0 x264 Phun Psyz

Seeders: 67
Leechers: 9
Completed: 860

Age: 3 days    Visits: 20    Category: TV    Size: 303.4 MB

Posted by: PhunPsyz    Comments: Read Comments

Info Hash: 3E6B8AA8D51348154C95B3DF3EDF9220617FF30F



Torrent Description



www.imdb.com/title/tt6674702/?ref_=ttep_ep8

Raj has announced that he and Anu are planning to get married in India on Valentine's Day 2019. With their wedding approaching, Anu tells Raj that she thinks they should have sex sooner than later to make sure that side of their relationship is compatible, she planning on getting a room in the hotel where she works for the event. A nervous Raj turns to his friends for support on the matter, but old routines may rear their proverbial ugly head in the process.

Source: Amzn







Format : MPEG-4
Format profile : Base Media / Version 2
Codec ID : mp42 (isom/iso2/avc1/mp41)
File size : 303 MiB
Duration : 21 min 7 s
Overall bit rate mode : Variable
Overall bit rate : 2 008 kb/s

Video
ID : 1
Format : AVC
Format/Info : Advanced Video Codec
Format profile : [email protected]
Format settings : CABAC / 1 Ref Frames
Format settings, CABAC : Yes
Format settings, ReFrames : 1 frame
Codec ID : avc1
Codec ID/Info : Advanced Video Coding
Duration : 21 min 7 s
Bit rate : 1 524 kb/s
Width : 1 920 pixels
Height : 1 080 pixels
Display aspect ratio : 16:9
Frame rate mode : Constant
Frame rate : 24.000 FPS
Color space : YUV
Chroma subsampling : 4:2:0
Bit depth : 8 bits
Scan type : Progressive
Bits/(Pixel*Frame) : 0.031
Stream size : 230 MiB (76%)
Writing library : x264 core 155 r2901 7d0ff22

Audio #1
ID : 2
Format : AC-3
Format/Info : Audio Coding 3
Commercial name : Dolby Digital
Codec ID : ac-3
Duration : 21 min 7 s
Bit rate mode : Constant
Bit rate : 320 kb/s
Channel(s) : 6 channels
Channel layout : L R C LFE Ls Rs
Sampling rate : 48.0 kHz
Frame rate : 31.250 FPS (1536 SPF)
Bit depth : 16 bits
Compression mode : Lossy
Stream size : 48.3 MiB (16%)
Title : Surround / Surround
Language : English

Audio #2
ID : 3
Format : AAC LC
Format/Info : Advanced Audio Codec Low Complexity
Codec ID : mp4a-40-2
Duration : 21 min 7 s
Bit rate mode : Variable
Bit rate : 159 kb/s
Channel(s) : 2 channels
Channel layout : L R
Sampling rate : 48.0 kHz
Frame rate : 46.875 FPS (1024 SPF)
Compression mode : Lossy
Stream size : 24.1 MiB (8%)
Title : Stereo / Stereo
Language : English

Text
Language : English
Default : Yes
Forced : No



Recently Added Torrents in TV

Trackers List

tracker name
udp://tracker.opentrackr.org:1337/announce
udp://tracker.leechers-paradise.org:6969/announce
udp://tracker.pirateparty.gr:6969/announce
udp://tracker.coppersurfer.tk:6969/announce
udp://tracker.mg64.net:2710/announce
udp://tracker.zer0day.to:1337/announce

Sharing Widget


Download torrent
303.4 MB
Seeders: 67
Leechers: 9
The Big Bang Theory S12E08 The Consummation Deviation 1080p 5 1 - 2 0 x264 Phun Psyz