Loading...
Loading...
Loading...

S W A T (SWAT) S02E07 Inheritance 1080p 5 1 - 2 0 x264 Phun Psyz

Seeders: 16
Leechers: 4
Completed: 596

Age: 1 week    Visits: 30    Category: TV    Size: 815.7 MB

Posted by: PhunPsyz    Comments: Read Comments

Info Hash: 3911AB6EAFC9F2982CF2EC8466D17E567EE49382



Torrent Description



www.imdb.com/title/tt9041756/?ref_=ttep_ep7

Sheldon tries to bond with Amy's father, but when Wolowitz lures Mr. Fowler away with magic tricks, Sheldon has no choice but to bond with Mrs. Fowler. Also, Koothrappali and Anu try to get physical for the first time.

Source: Amzn







Format : MPEG-4
Format profile : Base Media / Version 2
Codec ID : mp42 (isom/iso2/avc1/mp41)
File size : 816 MiB
Duration : 42 min 38 s
Overall bit rate mode : Variable
Overall bit rate : 2 674 kb/s

Video
ID : 1
Format : AVC
Format/Info : Advanced Video Codec
Format profile : [email protected]
Format settings : CABAC / 1 Ref Frames
Format settings, CABAC : Yes
Format settings, ReFrames : 1 frame
Codec ID : avc1
Codec ID/Info : Advanced Video Coding
Duration : 42 min 38 s
Bit rate : 2 189 kb/s
Width : 1 920 pixels
Height : 1 080 pixels
Display aspect ratio : 16:9
Frame rate mode : Constant
Frame rate : 24.000 FPS
Color space : YUV
Chroma subsampling : 4:2:0
Bit depth : 8 bits
Scan type : Progressive
Bits/(Pixel*Frame) : 0.044
Stream size : 668 MiB (82%)
Writing library : x264 core 155 r2901 7d0ff22

Audio #1
ID : 2
Format : AC-3
Format/Info : Audio Coding 3
Commercial name : Dolby Digital
Codec ID : ac-3
Duration : 42 min 38 s
Bit rate mode : Constant
Bit rate : 320 kb/s
Channel(s) : 6 channels
Channel layout : L R C LFE Ls Rs
Sampling rate : 48.0 kHz
Frame rate : 31.250 FPS (1536 SPF)
Bit depth : 16 bits
Compression mode : Lossy
Stream size : 97.6 MiB (12%)
Title : Surround / Surround
Language : English

Audio #2
ID : 3
Format : AAC LC
Format/Info : Advanced Audio Codec Low Complexity
Codec ID : mp4a-40-2
Duration : 42 min 38 s
Bit rate mode : Variable
Bit rate : 159 kb/s
Channel(s) : 2 channels
Channel layout : L R
Sampling rate : 48.0 kHz
Frame rate : 46.875 FPS (1024 SPF)
Compression mode : Lossy
Stream size : 48.6 MiB (6%)
Title : Stereo / Stereo
Language : English

Text
Language : English
Default : Yes
Forced : No



Recently Added Torrents in TV

Trackers List

tracker name
udp://tracker.opentrackr.org:1337/announce
udp://tracker.leechers-paradise.org:6969/announce
udp://tracker.pirateparty.gr:6969/announce
udp://tracker.coppersurfer.tk:6969/announce
udp://tracker.mg64.net:2710/announce
udp://tracker.zer0day.to:1337/announce

Sharing Widget


Download torrent
815.7 MB
Seeders: 16
Leechers: 4
S W A T (SWAT) S02E07 Inheritance 1080p 5 1 - 2 0 x264 Phun Psyz





Watch Movie | HD Inside The Manson Cult: The Lost Tapes (2018) | fifa 16 xbox one