Loading...
Loading...
Loading...

Raven's Home S02E17 Just Call Me Vic 1080p WEB-DL DD5 1 H 264-LAZY

Seeders: n/a
Leechers: n/a
Completed: n/a

Age: 3 weeks    Visits: 43    Category: TV    Size: 952.3 MB

Posted by: LazyRips    Comments: Read Comments

Info Hash: A564635738D63CF0946504802285F490A3DEDF8B



Torrent Description



Raven's Home:

Video
ID : 1
Format : AVC
Format/Info : Advanced Video Codec
Format profile : [email protected]
Format settings : CABAC / 4 Ref Frames
Format settings, CABAC : Yes
Format settings, RefFrames : 4 frames
Codec ID : V_MPEG4/ISO/AVC
Duration : 24 min 5 s
Bit rate : 5 139 kb/s
Width : 1 920 pixels
Height : 1 080 pixels
Display aspect ratio : 16:9
Frame rate mode : Constant
Frame rate : 23.976 (24000/1001) FPS
Color space : YUV
Chroma subsampling : 4:2:0
Bit depth : 8 bits
Scan type : Progressive
Bits/(Pixel*Frame) : 0.103
Stream size : 886 MiB (93%)
Language : English
Default : Yes
Forced : No
Color range : Limited
Color primaries : BT.709
Transfer characteristics : BT.709
Matrix coefficients : BT.709

Audio
ID : 2
Format : AC-3
Format/Info : Audio Coding 3
Commercial name : Dolby Digital
Codec ID : A_AC3
Duration : 24 min 5 s
Bit rate mode : Constant
Bit rate : 384 kb/s
Channel(s) : 6 channels
Channel layout : L R C LFE Ls Rs
Sampling rate : 48.0 kHz
Frame rate : 31.250 FPS (1536 SPF)
Bit depth : 16 bits
Compression mode : Lossy
Delay relative to video : -42 ms
Stream size : 66.2 MiB (7%)
Language : English
Service kind : Complete Main
Default : Yes
Forced : No

Text
ID : 3
Format : UTF-8
Codec ID : S_TEXT/UTF8
Codec ID/Info : UTF-8 Plain Text
Duration : 24 min 0 s
Bit rate : 128 b/s
Count of elements : 548
Stream size : 22.7 KiB (0%)
Language : English
Default : No
Forced : No

Screenshots:



Recently Added Torrents in TV

Trackers List

tracker name
udp://tracker.opentrackr.org:1337/announce
udp://tracker.leechers-paradise.org:6969/announce
udp://tracker.pirateparty.gr:6969/announce
udp://tracker.coppersurfer.tk:6969/announce
udp://tracker.mg64.net:2710/announce
udp://tracker.zer0day.to:1337/announce

Sharing Widget


Download torrent
952.3 MB
Seeders: n/a
Leechers: n/a
Raven's Home S02E17 Just Call Me Vic 1080p WEB-DL DD5 1 H 264-LAZY





4x25 Fairy Tail | Senran Kagura | Brettspiele