Pacific Rim 2: Insurrección en PepeCineIO | Taskmaster Returns 5th Sep 9:00pm On Dave NEW! | View PDF on Apple iOS
Loading...
Loading...
Loading...

Call Me Bruna S01 Completa iTALiAN x264 AAC by T7

Seeders: 1
Leechers: n/a
Completed: 5

Age: 3 days    Visits: 14    Category: TV    Size: 2.3 GB

Posted by: tudo75    Comments: Read Comments

Info Hash: F8E9CA56C33A37A2405CF6852AB5477F6454FF5F



Torrent Description



Call Me Bruna Stagione 01 Completa Episodi 01-08 by T7

[Format]: Matroska
[Resolution]: 720 x 406 pixels
[Display aspect ratio]: 16:9
[Frame rate mode]: Constant
[Frame rate]: 25.000 fps
[Audio]: AAC Stereo

.: ScreenShot :.







.: Scheda tecnica :.

Code:

General
Unique ID : 161960560295836981964747026958824816332 (0x79D8782347FE02041A6AB9FD3214BECC)
Complete name : Call Me Bruna S01\Call.Me.Bruna.1x01.Il.mio.corpo.il.tuo.corpo.iTA.AAC.WEBRip.x264-T7.mkv
Format : Matroska
Format version : Version 4
File size : 349 MiB
Duration : 44 min 54 s
Overall bit rate : 1 086 kb/s
Encoded date : UTC 2018-11-01 20:58:58
Writing application : mkvmerge v28.2.0 ('The Awakening') 64-bit
Writing library : libebml v1.3.6 + libmatroska v1.4.9

Video
ID : 1
Format : AVC
Format/Info : Advanced Video Codec
Format profile : [email protected]
Format settings : CABAC / 4 Ref Frames
Format settings, CABAC : Yes
Format settings, ReFrames : 4 frames
Codec ID : V_MPEG4/ISO/AVC
Duration : 44 min 54 s
Bit rate : 988 kb/s
Width : 720 pixels
Height : 406 pixels
Display aspect ratio : 16:9
Frame rate mode : Constant
Frame rate : 25.000 FPS
Color space : YUV
Chroma subsampling : 4:2:0
Bit depth : 8 bits
Scan type : Progressive
Bits/(Pixel*Frame) : 0.135
Stream size : 317 MiB (91%)
Writing library : x264 core 155 r2901 7d0ff22
Encoding settings : cabac=1 / ref=2 / deblock=1:0:0 / analyse=0x3:0x113 / me=hex / subme=6 / psy=1 / psy_rd=1.00:0.00 / mixed_ref=1 / me_range=16 / chroma_me=1 / trellis=1 / 8x8dct=1 / cqm=0 / deadzone=21,11 / fast_pskip=1 / chroma_qp_offset=-2 / threads=6 / lookahead_threads=1 / sliced_threads=0 / nr=0 / decimate=1 / interlaced=0 / bluray_compat=0 / constrained_intra=0 / bframes=3 / b_pyramid=2 / b_adapt=1 / b_bias=0 / direct=1 / weightb=1 / open_gop=0 / weightp=1 / keyint=250 / keyint_min=25 / scenecut=40 / intra_refresh=0 / rc_lookahead=30 / rc=crf / mbtree=1 / crf=17.5 / qcomp=0.60 / qpmin=0 / qpmax=69 / qpstep=4 / ip_ratio=1.40 / aq=1:1.00
Default : Yes
Forced : No

Audio
ID : 2
Format : AAC LC
Format/Info : Advanced Audio Codec Low Complexity
Codec ID : A_AAC-2
Duration : 44 min 54 s
Bit rate : 96.0 kb/s
Channel(s) : 2 channels
Channel layout : L R
Sampling rate : 44.1 kHz
Frame rate : 43.066 FPS (1024 SPF)
Compression mode : Lossy
Stream size : 30.8 MiB (9%)
Language : Italian
Default : Yes
Forced : No





Recently Added Torrents in TV

Trackers List

tracker name
udp://tracker.opentrackr.org:1337/announce
udp://tracker.leechers-paradise.org:6969/announce
udp://tracker.pirateparty.gr:6969/announce
udp://tracker.coppersurfer.tk:6969/announce
udp://tracker.mg64.net:2710/announce
udp://tracker.zer0day.to:1337/announce

Sharing Widget


Download torrent
2.3 GB
Seeders: 1
Leechers: n/a
Call Me Bruna S01 Completa iTALiAN x264 AAC by T7