Loading...
Loading...
Loading...

Better Call Saul Season 4 S04 COMPLETE 1080p WEB x265 6CH ReEnc-LUMI

Seeders: 18
Leechers: 10
Completed: 1,237

Age: 4 weeks    Visits: 32    Category: TV    Size: 3.2 GB

Posted by: lumi265    Comments: Read Comments

Info Hash: 15A04A59DC38EFDCD6E7A70DFFAD1EFC81B135B0



Torrent Description



Please help by seeding for as long as possible so others can download!

If you'd like me to do more encodes, season packs, or TV shows, please contribute. Every little bit helps.

BTC: 3NK9rYXiHoX5YgDEdcxa2ukX5RoUZJhnum

Screens:





Please rate if good, and comment if there are any other resolutions or codecs you’d like me to try, or smaller size (slightly less quality?). I’m a new encoder and want to deliver what you guys want!

Note: I’m an encoder, not a ripper. I’m thankful to those who able great quality sources, allowing me to encode at lower resolutions or lower bitrates for those who want smaller filesize!

All episodes have English subtitles at the least, as well as a few others in some episodes (a bit irregular)

Overall Source: Better.Call.Saul.S04.1080p.NF.WEBRip.DDP5.1.x264-MIXED[rartv]

Individual Episode Source:
Better.Call.Saul.S04E01.Smoke.1080p.NF.WEBRip.DDP5.1.x264-NTb.mkv 3.50 GB
Better.Call.Saul.S04E02.Breathe.1080p.NF.WEBRip.DDP5.1.x264-NTb.mkv 2.78 GB
Better.Call.Saul.S04E03.Something.Beautiful.1080p.NF.WEBRip.DDP5.1.x264-NTb.mkv 3.45 GB
Better.Call.Saul.S04E04.Talk.1080p.Netflix.WEBRip.DD.5.1.x264-TrollHD.mkv 2.29 GB
Better.Call.Saul.S04E05.1080p.Netflix.WEBRip.DD.5.1.x264-TrollHD.mkv 3.32 GB
Better.Call.Saul.S04E06.iNTERNAL.1080p.WEB.X264-METCON.mkv 2.13 GB
Better.Call.Saul.S04E07.1080p.Netflix.WEBRip.DD.5.1.x264-TrollHD.mkv 3.10 GB
Better.Call.Saul.S04E08.iNTERNAL.1080p.WEB.X264-METCON.mkv 2.37 GB
Better.Call.Saul.S04E09.1080p.WEB.X264-METCON.mkv 2.47 GB
Better.Call.Saul.S04E10.1080p.WEB.X264-METCON.mkv 2.71 GB

Ep1 Info:
Video
ID : 1
Format : HEVC
Format/Info : High Efficiency Video Coding
Format profile : [email protected]@Main
Codec ID : hev1
Codec ID/Info : High Efficiency Video Coding
Duration : 48 min 31 s
Bit rate : 668 kb/s
Width : 1 920 pixels
Height : 1 080 pixels
Display aspect ratio : 16:9
Frame rate mode : Variable
Frame rate : 23.976 (24000/1001) FPS
Minimum frame rate : 23.974 FPS
Maximum frame rate : 23.981 FPS
Color space : YUV
Chroma subsampling : 4:2:0
Bit depth : 8 bits
Bits/(Pixel*Frame) : 0.013
Stream size : 232 MiB (72%)
Writing library : x265 2.1:[Windows][GCC 5.3.1][64 bit] 8bit
Encoding settings : wpp / ctu=64 / min-cu-size=8 / max-tu-size=32 / tu-intra-depth=1 / tu-inter-depth=1 / me=3 / subme=3 / merange=57 / rect / no-amp / max-merge=3 / temporal-mvp / no-early-skip / rskip / rdpenalty=0 / no-tskip / no-tskip-fast / strong-intra-smoothing / no-lossless / no-cu-lossless / no-constrained-intra / no-fast-intra / open-gop / no-temporal-layers / interlace=0 / keyint=240 / min-keyint=24 / scenecut=40 / rc-lookahead=25 / lookahead-slices=4 / bframes=4 / bframe-bias=0 / b-adapt=2 / ref=4 / limit-refs=3 / limit-modes / weightp / no-weightb / aq-mode=1 / qg-size=32 / aq-strength=1.00 / cbqpoffs=0 / crqpoffs=0 / rd=4 / psy-rd=2.00 / rdoq-level=2 / psy-rdoq=1.00 / log2-max-poc-lsb=8 / no-rd-refine / signhide / deblock=0:0 / sao / no-sao-non-deblock / b-pyramid / cutree / no-intra-refresh / rc=crf / crf=25.0 / qcomp=0.60 / qpmin=0 / qpmax=69 / qpstep=4 / ipratio=1.40 / pbratio=1.30

Audio
ID : 2
Format : AAC LC
Format/Info : Advanced Audio Codec Low Complexity
Codec ID : mp4a-40-2
Duration : 48 min 31 s
Bit rate mode : Variable
Bit rate : 255 kb/s
Channel(s) : 6 channels
Channel layout : C L R Ls Rs LFE
Sampling rate : 48.0 kHz
Frame rate : 46.875 FPS (1024 SPF)
Compression mode : Lossy
Stream size : 88.3 MiB (27%)
Title : Surround / Surround
Language : English
Default : Yes


Text #1
ID : 3
Format : Timed Text
Muxing mode : sbtl
Codec ID : tx3g
Duration : 31 min 11 s
Bit rate mode : Variable
Bit rate : 3 b/s
Stream size : 800 Bytes (0%)
Language : English
Default : Yes
Forced : No


Text #2
ID : 4
Format : Timed Text
Muxing mode : sbtl
Codec ID : tx3g
Duration : 47 min 35 s
Bit rate mode : Variable
Bit rate : 50 b/s
Stream size : 17.5 KiB (0%)
Language : English
Default : No
Forced : No

Text #3
ID : 5
Format : Timed Text
Muxing mode : sbtl
Codec ID : tx3g
Duration : 47 min 22 s
Bit rate mode : Variable
Bit rate : 43 b/s
Stream size : 15.0 KiB (0%)
Language : English
Default : No
Forced : No









Recently Added Torrents in TV

Trackers List

tracker name
udp://tracker.opentrackr.org:1337/announce
udp://tracker.leechers-paradise.org:6969/announce
udp://tracker.pirateparty.gr:6969/announce
udp://tracker.coppersurfer.tk:6969/announce
udp://tracker.mg64.net:2710/announce
udp://tracker.zer0day.to:1337/announce

Sharing Widget


Download torrent
3.2 GB
Seeders: 18
Leechers: 10
Better Call Saul Season 4 S04 COMPLETE 1080p WEB x265 6CH ReEnc-LUMI





Vedi Prodotto | Grey's Anatomy | Jason Derulo X David Guetta Goodbye Feat Nicki Minaj Willy William Zumba By Cesar Moquete mp3 song