Ph.D. dissertation Jin Liu revised | Download Issue 300 | powerpoint chapter 4
Loading...
Loading...
Loading...

Australia 2008 1080p BluRay x264 6ch AAC ~HEVCvideo

Seeders: 1
Leechers: n/a
Completed: 9

Age: 1 month    Visits: 48    Category: Movies    Size: 4.6 GB

Posted by: HEVCvideo    Comments: Read Comments

Info Hash: A2C7F94561C762AC62F440D11D7F0517B0AB72D8



Torrent Description



Encoded at level 5 for quality, may not play on some low-end hardware as a result

General
Unique ID                   : 101278703197398654343935872326111265233 (0x4C319197BE18805F1F28D9E0AAB701D1)
Complete name               : \\10.0.0.136\Video\Australia 2008 1080p BluRay x264 6ch AAC.mkv
Format                      : Matroska
Format version              : Version 4 / Version 2
File size                   : 4.64 GiB
Duration                    : 2 h 45 min
Overall bit rate            : 4 017 kb/s
Movie name                  : Australia 2008 ~HEVCvideo
Encoded date                : UTC 2018-07-23 16:18:54
Writing application         : mkvmerge v25.0.0 ('Prog Noir') 64-bit
Writing library             : libebml v1.3.6 + libmatroska v1.4.9 / Lavf58.17.101

Video
ID                          : 7
Format                      : AVC
Format/Info                 : Advanced Video Codec
Format profile              : [email protected]
Format settings             : CABAC / 16 Ref Frames
Format settings, CABAC      : Yes
Format settings, ReFrames   : 16 frames
Codec ID                    : V_MPEG4/ISO/AVC
Duration                    : 2 h 45 min
Bit rate                    : 3 484 kb/s
Width                       : 1 920 pixels
Height                      : 816 pixels
Display aspect ratio        : 2.35:1
Frame rate mode             : Constant
Frame rate                  : 23.976 (24000/1001) FPS
Color space                 : YUV
Chroma subsampling          : 4:2:0
Bit depth                   : 8 bits
Scan type                   : Progressive
Bits/(Pixel*Frame)          : 0.093
Stream size                 : 4.03 GiB (87%)
Title                       : x264 Degrained video track
Writing library             : x264 core 155 r2901 7d0ff22
Encoding settings           : cabac=1 / ref=16 / deblock=1:0:0 / analyse=0x3:0x133 / me=umh / subme=10 / psy=1 / psy_rd=1.00:0.00 / mixed_ref=1 / me_range=24 / chroma_me=1 / trellis=2 / 8x8dct=1 / cqm=0 / deadzone=21,11 / fast_pskip=1 / chroma_qp_offset=-2 / threads=12 / lookahead_threads=2 / sliced_threads=0 / nr=0 / decimate=1 / interlaced=0 / bluray_compat=0 / constrained_intra=0 / bframes=8 / b_pyramid=2 / b_adapt=2 / b_bias=0 / direct=3 / weightb=1 / open_gop=0 / weightp=2 / keyint=1000 / keyint_min=23 / scenecut=40 / intra_refresh=0 / rc_lookahead=60 / rc=crf / mbtree=1 / crf=20.0 / qcomp=0.60 / qpmin=0 / qpmax=69 / qpstep=4 / ip_ratio=1.40 / aq=3:1.00
Language                    : English
Default                     : Yes
Forced                      : No

Audio
ID                          : 8
Format                      : AAC
Format/Info                 : Advanced Audio Codec
Format profile              : LC
Codec ID                    : A_AAC-2
Duration                    : 2 h 45 min
Bit rate                    : 448 kb/s
Channel(s)                  : 6 channels
Channel positions           : Front: L C R, Side: L R, LFE
Sampling rate               : 48.0 kHz
Frame rate                  : 46.875 FPS (1024 SPF)
Compression mode            : Lossy
Delay relative to video     : 9 ms
Stream size                 : 530 MiB (11%)
Title                       : FhG AAC Surround Sound
Language                    : English
Default                     : Yes
Forced                      : No

Text #1
ID                          : 1
Format                      : PGS
Muxing mode                 : zlib
Codec ID                    : S_HDMV/PGS
Codec ID/Info               : Picture based subtitle format used on BDs/HD-DVDs
Duration                    : 2 h 44 min
Bit rate                    : 55.1 kb/s
Count of elements           : 4086
Stream size                 : 64.9 MiB (1%)
Language                    : English
Default                     : Yes
Forced                      : No

Text #2
ID                          : 2
Format                      : PGS
Muxing mode                 : zlib
Codec ID                    : S_HDMV/PGS
Codec ID/Info               : Picture based subtitle format used on BDs/HD-DVDs
Duration                    : 2 h 37 min
Bit rate                    : 46.5 kb/s
Count of elements           : 3356
Stream size                 : 52.5 MiB (1%)
Language                    : Spanish
Default                     : No
Forced                      : No

Text #3
ID                          : 3
Format                      : PGS
Muxing mode                 : zlib
Codec ID                    : S_HDMV/PGS
Codec ID/Info               : Picture based subtitle format used on BDs/HD-DVDs
Duration                    : 2 h 38 min
Bit rate                    : 38.5 kb/s
Count of elements           : 3570
Stream size                 : 43.7 MiB (1%)
Language                    : Korean
Default                     : No
Forced                      : No

Text #4
ID                          : 4
Format                      : PGS
Muxing mode                 : zlib
Codec ID                    : S_HDMV/PGS
Codec ID/Info               : Picture based subtitle format used on BDs/HD-DVDs
Duration                    : 2 h 37 min
Bit rate                    : 45.7 kb/s
Count of elements           : 3330
Stream size                 : 51.5 MiB (1%)
Language                    : Portuguese
Default                     : No
Forced                      : No

Text #5
ID                          : 5
Format                      : PGS
Muxing mode                 : zlib
Codec ID                    : S_HDMV/PGS
Codec ID/Info               : Picture based subtitle format used on BDs/HD-DVDs
Duration                    : 2 h 37 min
Bit rate                    : 2 251 b/s
Count of elements           : 158
Stream size                 : 2.54 MiB (0%)
Language                    : French
Default                     : No
Forced                      : No

Text #6
ID                          : 6
Format                      : PGS
Muxing mode                 : zlib
Codec ID                    : S_HDMV/PGS
Codec ID/Info               : Picture based subtitle format used on BDs/HD-DVDs
Duration                    : 2 h 38 min
Bit rate                    : 19.6 kb/s
Count of elements           : 3514
Stream size                 : 22.2 MiB (0%)
Language                    : Chinese
Default                     : No
Forced                      : No

Menu
00:00:00.000                : en:Chapter 1
00:05:04.887                : en:Chapter 2
00:06:09.786                : en:Chapter 3
00:16:18.894                : en:Chapter 4
00:22:31.558                : en:Chapter 5
00:27:00.118                : en:Chapter 6
00:32:41.334                : en:Chapter 7
00:41:31.614                : en:Chapter 8
00:52:24.015                : en:Chapter 9
00:57:30.321                : en:Chapter 10
01:00:08.521                : en:Chapter 11
01:09:49.894                : en:Chapter 12
01:14:58.410                : en:Chapter 13
01:18:08.100                : en:Chapter 14
01:29:33.451                : en:Chapter 15
01:38:20.227                : en:Chapter 16
01:44:47.656                : en:Chapter 17
01:47:33.321                : en:Chapter 18
01:54:34.075                : en:Chapter 19
01:56:06.584                : en:Chapter 20
02:03:38.661                : en:Chapter 21
02:08:32.371                : en:Chapter 22
02:14:36.109                : en:Chapter 23
02:23:17.839                : en:Chapter 24
02:34:00.564                : en:Chapter 25
02:37:47.415                : en:Chapter 26


























Recently Added Torrents in Movies

Trackers List

tracker name
udp://tracker.opentrackr.org:1337/announce
udp://tracker.leechers-paradise.org:6969/announce
udp://tracker.pirateparty.gr:6969/announce
udp://tracker.coppersurfer.tk:6969/announce
udp://tracker.mg64.net:2710/announce
udp://tracker.zer0day.to:1337/announce

Sharing Widget


Download torrent
4.6 GB
Seeders: 1
Leechers: n/a
Australia 2008 1080p BluRay x264 6ch AAC ~HEVCvideo